<?xml version="1.0" standalone="no"?>
<!DOCTYPE svg PUBLIC "-//W3C//DTD SVG 1.1//EN" "http://www.w3.org/Graphics/SVG/1.1/DTD/svg11.dtd" >
<svg xmlns="http://www.w3.org/2000/svg">
<metadata></metadata>
<defs>
<font id="adonaisregular" horiz-adv-x="835" >
<font-face units-per-em="2048" ascent="1638" descent="-410" />
<missing-glyph horiz-adv-x="1024" />
<glyph unicode="&#xd;" horiz-adv-x="1024" />
<glyph unicode=" "  horiz-adv-x="1024" />
<glyph unicode="&#x09;" horiz-adv-x="1024" />
<glyph unicode="&#xa0;" horiz-adv-x="1024" />
<glyph unicode="!" horiz-adv-x="587" d="M94 203q0 18 12 35l144 143q16 12 35 12q20 0 32 -12l138 -135q14 -16 14 -37t-14 -35l-142 -141q-14 -14 -34 -15q-20 0 -35 15l-138 137q-12 12 -12 33zM166 498l256 59v932l-256 -53v-938z" />
<glyph unicode="&#x22;" horiz-adv-x="694" d="M72 1462h227l-49 -424h-123zM379 1462h227l-49 -424h-123z" />
<glyph unicode="#" horiz-adv-x="872" d="M45 688l27 -149h145v-170l145 28v142h109v-170l145 28v142h170l-28 149h-142v105h170l-28 149h-142v170l-145 -27v-143h-109v170l-145 -27v-143h-172l27 -149h145v-105h-172zM362 688v105h109v-105h-109z" />
<glyph unicode="$" horiz-adv-x="1007" d="M20 240l242 -252l283 215v-158h151v272l205 158q31 23 44 46.5t13 45.5q0 27 -14 49q-4 6 -16 19l-357 336q-16 10 -16 26q0 14 18 31q6 4 19 12l389 277l-213 252l-268 -199v166h-152v-279l-194 -143q-20 -14 -31 -24q-31 -33 -31 -70q0 -35 31 -72l342 -319 q18 -18 18 -39q0 -14 -14 -27q-4 -4 -14 -10z" />
<glyph unicode="%" horiz-adv-x="1083" d="M25 -2l254 35l673 1546l-250 -29zM33 1210q0 18 12 35l143 144q16 12 35 12q20 0 33 -12l137 -136q14 -16 15 -36q-1 -21 -15 -35l-141 -142q-14 -14 -35 -14q-20 0 -35 14l-137 138q-12 12 -12 32zM610 399q0 18 13 35l143 144q16 12 35 12q20 0 33 -12l137 -136 q14 -16 14 -36q0 -21 -14 -35l-142 -142q-14 -14 -34 -14t-35 14l-137 138q-12 12 -13 32z" />
<glyph unicode="&#x26;" horiz-adv-x="921" d="M88 573q0 -10 8 -16l236 -149v-410l143 59v260l146 -90l206 129q0 6 -32 23q-4 2 -19 8q-27 12 -141 90q-135 90 -135 109q0 16 63 65q106 84 131 105q14 10 0 22q-4 4 -133 115q-25 20 -61 53q0 10 180 92q59 27 182 82q0 6 -88 86q-29 27 -88 80q-6 0 -43 -15.5 t-168 -74.5v285l-143 -54v-294l-236 -107q-14 -8 0 -25l236 -210v-29q-35 -33 -129 -98q-43 -29 -107 -72q-8 -8 -8 -19z" />
<glyph unicode="'" horiz-adv-x="430" d="M35 1462h227l-49 -424h-123z" />
<glyph unicode="(" horiz-adv-x="749" d="M10 717l412 708h244l-400 -710l387 -703h-239z" />
<glyph unicode=")" horiz-adv-x="749" d="M43 1425h244l411 -708l-403 -705h-240l387 703z" />
<glyph unicode="*" horiz-adv-x="749" d="M8 1126l25 -102h192l-153 -154l90 -51l135 135v-217l100 27v190l154 -153l51 92l-133 131h215l-27 102h-190l154 154l-91 49l-133 -133v217l-100 -22v-195l-154 154l-51 -88l133 -136h-217z" />
<glyph unicode="+" horiz-adv-x="960" d="M43 766l31 -176h325v-357l176 35v322h357l-35 176h-322v356l-176 -30v-326h-356z" />
<glyph unicode="," horiz-adv-x="571" d="M51 203q0 23 17 43l174 174q20 16 43 16q25 0 41 -16l168 -166q18 -23 18 -45q0 -25 -18 -43l-172 -172q-29 -29 -146 -119q-59 -37 -117 -74l109 265l-100 96q-16 16 -17 41z" />
<glyph unicode="-" d="M27 860l45 -270h714l-49 270h-710z" />
<glyph unicode="." horiz-adv-x="571" d="M51 203q0 23 17 43l174 174q20 16 43 16q25 0 41 -16l168 -166q18 -23 18 -45q0 -25 -18 -43l-172 -172q-18 -18 -43 -19q-25 0 -43 19l-168 168q-16 16 -17 41z" />
<glyph unicode="/" horiz-adv-x="1083" d="M25 -2l290 59l674 1547l-287 -54z" />
<glyph unicode="0" horiz-adv-x="1359" d="M16 731q0 -78 47 -131l478 -530q53 -55 118 -56q70 0 119 56l492 544q49 55 49 131q0 78 -49 134l-477 530q-49 53 -119 53t-119 -53l-492 -547q-47 -57 -47 -131zM389 735q0 31 21 58l211 231q23 23 49 23q31 0 49 -23l203 -225q23 -27 22 -58q1 -32 -22 -55l-207 -231 q-20 -23 -51 -23t-52 23l-202 225q-20 25 -21 55z" />
<glyph unicode="1" horiz-adv-x="425" d="M51 6l293 60v1423l-293 -53v-1430z" />
<glyph unicode="2" horiz-adv-x="1146" d="M41 164q0 -20 8 -37q20 -35 47 -70q6 -10 19 -24q31 -33 82 -39q8 0 24 -2h727l131 270h-596l412 471q14 16 20 27q45 70 46 149q0 35 -7.5 62.5t-25.5 62.5l-629 375l-152 -289l426 -223q31 -10 44.5 -24.5t13.5 -28.5t-13 -31q-4 -4 -12 -14l-551 -578q-4 -10 -6 -16 q-8 -25 -8 -41z" />
<glyph unicode="3" horiz-adv-x="819" d="M45 1262l336 -203q45 -33 45 -64q0 -23 -27 -45q-4 -2 -12 -8l-229 -164l248 -178q47 -23 47 -49q0 -14 -17 -31q-4 -4 -16 -12l-369 -287l139 -223l543 405q12 8 19 15q45 41 45 88q0 45 -37 94l-170 152q-12 8 -17 12q-16 16 -16 31q0 23 33 34q57 41 112 89 q20 18 58 49q8 14 12 22q14 33 14 58q0 23 -10 42t-35 35q-49 29 -192 117q-59 37 -230 145q-57 35 -112 72z" />
<glyph unicode="4" horiz-adv-x="1167" d="M20 795l64 -295h461v-533l274 113l2 420h228l69 254h-293v571l-354 125zM315 748l230 366v-366h-230z" />
<glyph unicode="5" horiz-adv-x="1007" d="M31 262l164 -262q137 59 221 98q242 115 407 221q70 45 108 111t38 135q0 113 -103.5 165t-335.5 161q-80 37 -223 104v101l576 -2l98 282h-909l-2 -590l467 -190q51 -16 51 -43q0 -20 -31 -45q-4 -4 -14 -10z" />
<glyph unicode="6" horiz-adv-x="1171" d="M45 424q0 -18 6 -43q18 -57 53 -72.5t265 -152.5l270 -154q10 -8 31 -8q18 0 49 10q61 16 74 39l161 276l164 277q6 10 6 31q0 24 -8 51q-14 57 -39 72l-272 153l-139 80l202 311q-68 63 -100 95q-53 43 -106 88q-2 -4 -97.5 -161t-189.5 -312q-106 -174 -158 -263 q-141 -246 -164 -276q-8 -14 -8 -41zM375 469q-10 20 0 31l65 112l64 115q6 12 28 14q23 8 31 0l109 -61l106 -62q15 -9 17 -32q10 -25 0 -31l-66 -109l-61 -114l-6 -6q-8 -6 -26 -10.5t-32 -0.5l-106 64l-109 61q-14 8 -14 29z" />
<glyph unicode="7" horiz-adv-x="1169" d="M59 1409l45 -309h539l-485 -963l274 -145l655 1417h-1028z" />
<glyph unicode="8" horiz-adv-x="1308" d="M55 440q0 -49 25 -67q27 -14 237 -185l234 -186q23 -16 84 -16q63 0 84 16l244 191l243 190q19 17 19 68q0 49 -19 67l-237 184l-80 66l41 33l219 172q18 12 18 61q0 43 -18 60l-215 168l-213 170q-20 20 -76 20q-59 0 -76 -20l-215 -175l-219 -172q-23 -12 -22 -59 q0 -45 22 -61l215 -168l45 -37l-71 -62l-244 -190q-25 -16 -25 -68zM403 453q0 20 11 26l98 82l100 78q6 8 33 8q25 0 33 -8l96 -76l94 -76q11 -10 11 -30q0 -23 -11 -27l-100 -76l-94 -80q-4 -6 -33 -6q-31 0 -39 6l-94 78l-94 74q-10 8 -11 27zM424 1014q0 14 10 24l90 72 l90 74l31 4l29 -4l86 -70l86 -67q8 -9 8 -29t-8 -23l-90 -69l-86 -72q-6 -8 -31 -8t-33 8l-88 68l-84 69q-10 6 -10 23z" />
<glyph unicode="9" horiz-adv-x="1179" d="M53 844q0 -25 11.5 -68t35.5 -57l273 -154q53 -29 94 -53q23 -14 45 -27l-174 -311q57 -63 86 -94q45 -45 92 -88q2 6 96 160q143 238 191 313q100 166 155 262l164 277q10 14 11 34q-1 10 -9 47q-14 59 -43 72l-274 154l-268 155q-10 6 -29 7q-27 0 -53 -9 q-59 -16 -72 -39l-164 -276l-162 -277q-6 -10 -6 -28zM367 879q-6 27 0 34q4 4 71 115l66 119q0 8 28 18q27 6 39 0l115 -65l115 -66q12 -12 16 -30q6 -23 0 -33l-69 -121l-70 -121q-4 -10 -29 -16q-23 -6 -35 0l-114 65l-115 66q-10 10 -18 35z" />
<glyph unicode=":" horiz-adv-x="587" d="M94 817q0 18 12 35l144 143q16 12 35 13q20 0 32 -13l138 -135q14 -16 14 -37t-14 -35l-142 -141q-14 -14 -34 -14t-35 14l-138 137q-12 12 -12 33zM119 301q0 18 12 35l143 143q16 12 35 13q20 0 33 -13l137 -135q14 -16 15 -37q-1 -21 -15 -35l-141 -141 q-14 -14 -35 -14q-20 0 -35 14l-137 137q-12 12 -12 33z" />
<glyph unicode=";" horiz-adv-x="571" d="M72 199q0 25 14 39l156 157q16 14 39 15q23 0 36 -15l152 -149q16 -16 16 -41q0 -23 -16 -39l-156 -154q-39 -41 -170 -139q-33 -16 -65 -35l98 238l-90 86q-14 14 -14 37zM94 817q0 18 12 35l144 143q16 12 35 13q20 0 32 -13l138 -135q14 -16 14 -37t-14 -35l-142 -141 q-14 -14 -34 -14t-35 14l-138 137q-12 12 -12 33z" />
<glyph unicode="&#x3c;" horiz-adv-x="1064" d="M55 809q0 8 6.5 43t79.5 96q25 18 74 51q74 47 150 97q176 113 272 172q156 94 182 102l154 -158q-190 -113 -348 -211q-274 -170 -275 -188q0 -4 125 -123q143 -135 244 -229q129 -121 172 -158q-88 -74 -174 -145q-16 12 -182 164q-59 55 -291 268q-78 70 -154 141 q-25 33 -30 53.5t-5 24.5z" />
<glyph unicode="=" d="M102 612l37 -217h572l-39 217h-570zM102 907l37 -217h572l-39 217h-570z" />
<glyph unicode="&#x3e;" horiz-adv-x="1013" d="M57 1212l154 158q29 -8 180 -100q96 -59 273 -172q76 -49 151 -99q47 -31 72 -49q76 -61 82 -99t6 -46q0 -5 -4 -17q-6 -25 -31 -57q-76 -70 -152 -139l-290 -270q-158 -143 -185 -164q-25 16 -84 67l-90 78q72 63 295 272q246 231 246 238q0 16 -272 186 q-184 115 -351 213z" />
<glyph unicode="?" horiz-adv-x="831" d="M27 137q0 16 10 31l129 129q16 10 31 10q16 0 30 -10l123 -123q12 -16 12 -31q0 -16 -12 -32l-127 -127q-12 -12 -30 -13q-14 0 -31 13l-125 122q-10 14 -10 31zM31 1110l383 -201q31 -10 41 -21t10 -28q0 -14 -10 -29q-2 -4 -13 -12l-325 -387l260 -43l325 373 q20 25 29 43q31 59 31 117q0 55 -29 110l-567 338z" />
<glyph unicode="A" horiz-adv-x="1361" d="M49 127q0 -14 119 -57q43 -15 166 -58l59 176q37 106 46.5 133t31.5 27h412q18 0 35 -51q29 -90 41 -113.5t49 -130.5q4 -14 14 -41q20 0 102 33q14 4 39 18q45 25 103 43q23 7 23 17q0 2 -1 4l-444 1163q-31 82 -35 94q-25 61 -39 62l-195 -53q-51 -16 -102 -31 q-6 -2 -35 -88zM551 639l113 315q39 -94 84 -209q31 -76 38 -98v-8h-235z" />
<glyph unicode="B" horiz-adv-x="974" d="M23 115q0 -25 204 -70q68 -14 207 -41q5 -1 11.5 -1t14.5 1q16 2 29 23l195 200q96 100 129 135q84 88 84 134q0 33 -100.5 172t-100.5 141q0 6 91.5 95t91.5 136q0 31 -33 64q-4 6 -19 14q-27 29 -178 207q-98 115 -106 115q-6 0 -41 14t-39 14h-57q-86 -20 -138 -32 q-125 -31 -245 -64v-1257zM342 811v387q57 -68 86 -100q86 -103 86 -109q0 -10 -86 -94q-29 -27 -86 -84zM344 291v414v53q68 -61 100 -94q103 -103 103 -138q0 -31 -101 -135q-33 -35 -102 -100z" />
<glyph unicode="C" horiz-adv-x="1173" d="M55 807q0 -14 4 -30.5t12.5 -32t18.5 -27.5q80 -94 162 -187q219 -252 301 -346q164 -186 168 -186q86 70 129 104q131 106 139 117q-72 80 -141 160q-121 135 -240 270q-127 145 -127 154q0 16 164 143q100 76 307 228q166 120 168 120l-297 217q-18 0 -170 -116 q-96 -74 -282 -224q-80 -63 -158 -127q-47 -39 -72 -63q-76 -78 -81 -115t-5 -59z" />
<glyph unicode="D" horiz-adv-x="1253" d="M61 88q0 -12 170 -40t197 -28q66 0 131 56q20 18 53 57q45 37 211 213q187 197 353 387q12 12 12 29q0 12 -12 24l-658 658q-12 8 -26 10h-13q-25 0 -221 -35q-66 -10 -197 -37v-1294zM387 385l8 731l381 -336v-41q-6 -4 -196.5 -179t-192.5 -175z" />
<glyph unicode="E" horiz-adv-x="956" d="M43 502q0 -12 10 -23l582 -473l229 184q0 8 -26 27q-8 6 -31 19.5t-156 128.5q-151 128 -151 155q0 24 71 92q111 109 146 150q8 12 8 16q0 8 -8 17q-37 43 -176 192q-41 45 -41 47q0 14 200 131q66 39 203 117q0 12 -96 125q-31 37 -98 113q-14 0 -246 -134 q-205 -119 -410 -237q-8 -6 -8 -16t8 -19q172 -197 187 -213q88 -102 88 -110q0 -12 -90.5 -97.5t-184.5 -167.5q-10 -10 -10 -24z" />
<glyph unicode="F" horiz-adv-x="886" d="M74 -6q84 14 186 41.5t131 48.5v526l8 11h389v297h-368q-29 0 -29 24v164q0 29 15 29h389q20 0 20 14t-37 158q-20 76 -39 151h-199.5t-254.5 2h-125t-86 -4v-1462z" />
<glyph unicode="G" horiz-adv-x="1142" d="M51 696q0 -49 164 -227q127 -137 303 -307q162 -156 166 -156q92 0 223 39q156 45 156 98v441.5v236.5h-299v-420q0 -14 -29 -14q-16 0 -151 147.5t-135 161.5q0 16 129 164q102 117 239 266q66 70 131 142q-12 2 -84 59q-80 63 -157 129q-104 -111 -209 -221 q-188 -199 -295 -324q-152 -176 -152 -215z" />
<glyph unicode="H" horiz-adv-x="1079" d="M55 14l293 60v633h326v-699l6 -8l313 53v1465l-297 -95v-454h-336v528l-305 -53v-1430z" />
<glyph unicode="I" horiz-adv-x="485" d="M68 -2l292 59v1424l-292 -54v-1429z" />
<glyph unicode="J" horiz-adv-x="948" d="M14 274l183 -284l546 188q61 16 97 74q10 18 22 53v1176l-309 -72l-2 -881v-24q-6 -55 -57 -66z" />
<glyph unicode="K" horiz-adv-x="1327" d="M53 -16l353 100v565l583 -645l293 146l-530 632l432 584l-287 147l-491 -659v627l-353 -62v-1435z" />
<glyph unicode="L" horiz-adv-x="964" d="M47 -6h758l113 313h-551v1125l-320 -68v-1370z" />
<glyph unicode="M" horiz-adv-x="1386" d="M49 6l326 27v784l274 -637l312 584v-776l319 45v1411l-340 -62l-258 -471l-254 533l-379 -41v-1397z" />
<glyph unicode="N" horiz-adv-x="1234" d="M39 2l321 55l-2 744l512 -799l252 47v1391l-284 -54v-704l-480 743l-319 -59v-1364z" />
<glyph unicode="O" horiz-adv-x="1517" d="M18 723q0 -78 54 -131l530 -531q55 -55 133 -55q76 0 131 55l545 545q55 55 55 131q0 78 -55 133l-530 531q-53 53 -131 53q-74 0 -132 -53l-546 -547q-53 -57 -54 -131zM434 727q0 31 23 57l233 232q26 22 53 22h2q33 0 56 -22l225 -225q23 -23 23 -58t-23 -55 l-231 -232q-19 -22 -53 -22h-3q-35 0 -57 22l-225 226q-23 23 -23 55z" />
<glyph unicode="P" horiz-adv-x="1107" d="M102 1354l4 -1344q98 16 146 25q145 25 145 31v233q0 6 162 154q221 201 297 272q162 152 162 170q0 39 -94 129q-76 72 -230 197q-139 111 -278 223q-12 10 -29 10q-6 0 -14 -2q-18 -6 -29 -8q-88 -23 -155.5 -48.5t-86.5 -41.5zM406 723v360h18q20 0 104 -77.5 t84 -106.5q0 -23 -92 -100q-31 -25 -92 -76h-22z" />
<glyph unicode="Q" horiz-adv-x="1499" d="M18 715q0 -78 54 -131l530 -531q55 -55 133 -55q76 0 131 55l72 72l211 -186l207 219l-199 186l254 254q55 55 55 131q0 78 -55 133l-530 531q-53 53 -131 53q-74 0 -132 -53l-546 -547q-53 -57 -54 -131zM434 719q0 31 23 57l233 232q26 22 53 22h2q33 0 56 -22 l225 -226q23 -23 23 -57q0 -35 -23 -55l-231 -232q-19 -22 -53 -22h-3q-35 0 -57 22l-225 226q-23 23 -23 55z" />
<glyph unicode="R" horiz-adv-x="1220" d="M59 10q80 14 160 29q158 39 176 49v504l25 -17q18 -18 139 -161q104 -127 212 -255t118 -128t80 43q88 55 178 112l29 19q-94 109 -234 278q-158 195 -158 205q0 25 86 125q63 74 109 143q6 10 6 17q0 8 -6 18q-98 123 -320 361q-78 84 -77 92q-18 12 -42 22.5t-53 10.5 q-10 0 -38 -4q-4 -4 -197 -48q-63 -14 -193 -43v-1372zM397 764v405q76 -57 113 -86q115 -91 115 -118q0 -39 -109 -121q-90 -68 -119 -80z" />
<glyph unicode="S" horiz-adv-x="1007" d="M20 240l242 -252l639 487q29 25 42 48.5t13 45.5q0 25 -14 47q-4 6 -14 19l-357 336q-16 10 -16 26q0 14 18 31q6 4 19 12l389 277l-213 252l-614 -455q-20 -14 -31 -24q-31 -33 -31 -70q0 -35 31 -72l342 -319q18 -18 18 -39q0 -14 -14 -27q-4 -4 -14 -10z" />
<glyph unicode="T" horiz-adv-x="1359" d="M4 1153l488 2v-1163l329 78l-4 1079h338l148 285h-1158z" />
<glyph unicode="U" horiz-adv-x="1251" d="M47 1370l2 -983q0 -113 64 -174q20 -20 63 -39l412 -166l239 172v-180l334 61l-2 1389l-334 -66l2 -1138l-364 141q-23 10 -31 19q-24 21 -24 47q0 8 2 16v981z" />
<glyph unicode="V" horiz-adv-x="1458" d="M51 1384l578 -1390l282 104l510 1239l-293 121l-358 -932l-399 924z" />
<glyph unicode="W" horiz-adv-x="1939" d="M35 1368l518 -1343q16 -18 35 -19q14 0 26 8q4 2 11 11l288 571l314 -571q14 -16 33 -17q10 0 22 8q4 2 10 9l506 1259l-289 158l-268 -748l-342 649l-242 -610l-288 709z" />
<glyph unicode="X" horiz-adv-x="1318" d="M41 100l272 -110l344 528l342 -526l273 110l-441 682l369 568l-262 137l-281 -434l-282 436l-262 -135l370 -572z" />
<glyph unicode="Y" horiz-adv-x="1384" d="M37 1360l506 -707l-4 -655l317 78v583l485 715l-288 117l-340 -504l-367 504z" />
<glyph unicode="Z" horiz-adv-x="1273" d="M47 -2l1018 2l111 319l-531 3l584 1079h-1010l-106 -328h553z" />
<glyph unicode="^" horiz-adv-x="1046" d="M10 870q14 20 129 146q82 88 215 233q57 61 115 123q29 18 45 25q12 4 39 0q41 -6 90 -66q16 -18 41 -59q76 -102 145 -203q141 -201 150 -231l-125 -123q-41 70 -170 254q-135 195 -149 194q-6 0 -189 -194q-164 -174 -219 -238q-41 45 -75 86t-42 53z" />
<glyph unicode="_" horiz-adv-x="1314" d="M0 -82h1315v-178h-1315v178z" />
<glyph unicode="a" horiz-adv-x="1267" d="M45 102q0 -10 70 -34q45 -15 186 -58l53 142q35 84 43.5 105.5t26.5 21.5h371q16 0 30 -41q27 -72 36 -90.5t44 -104.5q4 -12 15 -33q18 0 92 27q12 4 35 14q37 16 92 35q21 7 21 13q0 1 -1 3l-399 930q-27 66 -42.5 95.5t-25.5 29.5l-174 -43q-47 -12 -92 -24 q-6 -2 -31 -70zM496 512l102 252l111 -246z" />
<glyph unicode="b" horiz-adv-x="892" d="M20 92q0 -18 185 -55q61 -10 186 -33h21q16 2 28 16l176 162q57 53 117 107q74 70 74 108q0 20 -59.5 96t-120.5 154q0 4 82 76t82 108q0 25 -31 54q-4 4 -15 10q-20 20 -120 125q-126 131 -138 131q-4 0 -34.5 12.5t-36.5 12.5h-51l-345 -78v-1006zM307 649v309 q53 -53 78 -79q78 -82 78 -88t-78 -74q-25 -23 -78 -68zM309 233v330v43q61 -49 90 -76q93 -81 93 -108q0 -25 -91 -109q-29 -27 -92 -80z" />
<glyph unicode="c" horiz-adv-x="1103" d="M51 627q8 -27 31 -54q2 0 145 -147q135 -139 271 -279q147 -150 151 -149l242 178q-160 158 -318 318q-141 143 -141 149q0 14 148 115q55 37 278 182q74 47 150 96l-267 172q-14 0 -153 -94q-82 -55 -252 -176q-72 -51 -143 -102q-43 -31 -66 -50q-68 -59 -76 -110 q-2 -16 -2 -28.5t2 -20.5z" />
<glyph unicode="d" horiz-adv-x="1169" d="M55 70q0 -10 151.5 -32t178.5 -22q59 0 119 45q18 14 47 45q41 31 190 170q140 132 318 310q10 14 10 24t-10 19l-592 526q-10 6 -25 8h-10q-18 0 -199 -28q-59 -8 -178 -29v-1036zM348 307l8 586l342 -268v-33z" />
<glyph unicode="e" horiz-adv-x="876" d="M39 401q0 -12 8 -18l524 -379l207 148q0 8 -33 26q-4 2 -22 12.5t-137 100.5q-135 104 -135 125q0 18 63 73q98 88 131 121q12 12 0 25q-76 78 -133 133q-25 23 -61 59q0 12 180 107q59 31 182 92q0 8 -88 100q-29 29 -88 91q-14 0 -221 -107q-184 -96 -369 -190 q-6 -4 -6 -13q0 -10 6 -16q111 -111 168 -170q80 -82 80 -88q0 -10 -82 -80q-70 -59 -166 -131q-8 -8 -8 -21z" />
<glyph unicode="f" horiz-adv-x="811" d="M66 -4q18 0 137 26.5t149 45.5v419l6 9h351v237h-332q-25 0 -25 21v131q0 23 13 22h350q18 0 18 13q0 8 -22.5 85.5t-44.5 161.5l-600 -2v-1169z" />
<glyph unicode="g" horiz-adv-x="1062" d="M45 557q0 -39 148 -182q102 -100 274 -246q147 -125 149 -125q84 0 201 31q139 37 139 80v353v189h-268v-335q0 -12 -26 -13q-14 0 -136.5 118t-122.5 130t117 131t215 213q117 113 119 113q-10 2 -78.5 51t-140.5 100q-6 -6 -186 -176q-164 -154 -267 -260 q-137 -141 -137 -172z" />
<glyph unicode="h" horiz-adv-x="972" d="M49 12l264 47v506h293v-559l6 -6l281 43v1171l-266 -75v-365h-303v424l-275 -43v-1143z" />
<glyph unicode="i" horiz-adv-x="428" d="M61 -2l263 47v1139l-263 -41v-1145z" />
<glyph unicode="j" horiz-adv-x="856" d="M12 219l164 -227q106 33 170 51q203 61 324 100q55 12 86 58q10 14 20 43v940l-278 -58l-2 -704q0 -20 -2 -31q-10 -35 -50 -41z" />
<glyph unicode="k" horiz-adv-x="1204" d="M47 -12l318 80v452l526 -516l262 115l-477 508l389 467l-258 116l-442 -526v500l-318 -49v-1147z" />
<glyph unicode="l" horiz-adv-x="870" d="M43 -4h682l100 250h-495v899l-287 -53v-1096z" />
<glyph unicode="m" horiz-adv-x="1251" d="M45 4l293 23v626l246 -510l280 467v-620l287 37v1128l-305 -49l-232 -377l-229 426l-340 -33v-1118z" />
<glyph unicode="n" horiz-adv-x="1103" d="M35 2l289 43l-2 596l460 -639l228 37v1112l-256 -41v-565l-432 596l-287 -47v-1092z" />
<glyph unicode="o" horiz-adv-x="1370" d="M16 578q0 -61 47 -105l480 -424q47 -45 119 -45t118 45l490 436q49 43 49 105q0 59 -49 106l-477 424q-49 43 -119 43q-68 0 -117 -43l-494 -436q-23 -20 -35 -48t-12 -58zM391 582q0 27 21 45l209 186q23 18 51 18q27 0 49 -18l203 -180q20 -18 20 -45t-20 -45 l-209 -187q-18 -18 -49 -18q-29 0 -52 18l-202 181q-20 18 -21 45z" />
<glyph unicode="p" horiz-adv-x="978" d="M92 1083l4 -1075q88 12 131 19q131 20 131 26v187q0 6 144 122q205 166 268 220q145 121 145 135q0 29 -86 102q-78 66 -203.5 156t-250.5 180q-10 8 -27 8q-6 0 -16 -2q-4 0 -23 -6q-80 -18 -139 -38.5t-78 -33.5zM365 578v288h16q16 0 93 -62t77 -85q0 -16 -82 -80 q-27 -20 -84 -61h-20z" />
<glyph unicode="q" horiz-adv-x="1372" d="M16 571q0 -61 47 -104l480 -424q47 -45 119 -45t118 45l64 57l190 -149l187 176l-181 147l230 205q49 43 49 105q0 59 -49 106l-477 424q-49 43 -119 43q-68 0 -117 -43l-494 -438q-47 -43 -47 -105zM391 575q0 27 21 46l209 186q23 18 51 18q27 0 49 -18l203 -180 q20 -18 20 -45t-20 -45l-209 -187q-18 -18 -49 -18q-29 0 -52 18l-202 180q-20 18 -21 45z" />
<glyph unicode="r" horiz-adv-x="1097" d="M53 8q72 10 144 23q139 31 159 39v403l21 -12q16 -14 125 -129q94 -102 192.5 -204.5t106.5 -102.5q12 0 110 55q60 35 121 70l27 14q-98 100 -211 223q-141 154 -141 164q0 18 28 49q113 121 146 166q12 12 0 27q-84 94 -287 288q-70 68 -70 74q-4 0 -28.5 13.5 t-57.5 13.5q-6 0 -35 -4l-350 -72v-1098zM358 610v326q68 -45 101 -68q102 -73 102 -96t-61 -70q-82 -61 -142 -92z" />
<glyph unicode="s" horiz-adv-x="907" d="M18 193l218 -203l575 391q29 18 40 36.5t11 37.5q0 20 -12 39q-4 6 -14 14l-322 268q-14 8 -14 21q0 12 16 24q4 4 16 10l351 222l-193 202l-553 -364q-18 -12 -26 -21q-29 -27 -29 -55q0 -29 29 -57l307 -254q16 -16 16 -33q0 -12 -16 -25q-2 -2 -8 -4z" />
<glyph unicode="t" horiz-adv-x="1224" d="M4 922l438 2v-930l297 61l-4 865h305l131 227h-1040z" />
<glyph unicode="u" horiz-adv-x="1140" d="M43 1096l2 -787q0 -90 55 -139q18 -16 58 -31l370 -133l217 137v-143l299 49l-2 1110l-299 -51l2 -911l-329 112q-18 8 -27 15q-27 20 -20 51v784z" />
<glyph unicode="v" horiz-adv-x="1312" d="M45 1108l520 -1112l254 82l461 991l-264 98l-324 -745l-358 737z" />
<glyph unicode="w" horiz-adv-x="1650" d="M31 1094l467 -1074q14 -16 30 -16q10 0 23 8q4 2 10 8l260 457l283 -457q12 -14 29 -14q12 0 26 10q2 0 4 4l455 1008l-260 125l-242 -598l-307 520l-217 -489l-260 567z" />
<glyph unicode="x" horiz-adv-x="1187" d="M37 80l246 -88l309 422l307 -420l246 88l-397 545l331 454l-235 111l-252 -348l-254 348l-238 -107l334 -458z" />
<glyph unicode="y" horiz-adv-x="1245" d="M33 1087l454 -565l-2 -524l285 63v467l436 572l-258 92l-307 -401l-330 401z" />
<glyph unicode="z" horiz-adv-x="1146" d="M43 -2l915 2l101 256l-479 2l526 862h-909l-97 -262h498z" />
<glyph unicode="&#xad;" d="M27 860l45 -270h714l-49 270h-710z" />
<glyph unicode="&#xfd;" horiz-adv-x="0" />
<glyph unicode="&#x2000;" horiz-adv-x="802" />
<glyph unicode="&#x2001;" horiz-adv-x="1604" />
<glyph unicode="&#x2002;" horiz-adv-x="802" />
<glyph unicode="&#x2003;" horiz-adv-x="1604" />
<glyph unicode="&#x2004;" horiz-adv-x="534" />
<glyph unicode="&#x2005;" horiz-adv-x="401" />
<glyph unicode="&#x2006;" horiz-adv-x="267" />
<glyph unicode="&#x2007;" horiz-adv-x="267" />
<glyph unicode="&#x2008;" horiz-adv-x="200" />
<glyph unicode="&#x2009;" horiz-adv-x="320" />
<glyph unicode="&#x200a;" horiz-adv-x="89" />
<glyph unicode="&#x2010;" d="M27 860l45 -270h714l-49 270h-710z" />
<glyph unicode="&#x2011;" d="M27 860l45 -270h714l-49 270h-710z" />
<glyph unicode="&#x2012;" d="M27 860l45 -270h714l-49 270h-710z" />
<glyph unicode="&#x2013;" horiz-adv-x="1100" d="M27 860l61 -270h963l-66 270h-958z" />
<glyph unicode="&#x2014;" horiz-adv-x="2124" d="M27 860l121 -270h1927l-132 270h-1916z" />
<glyph unicode="&#x2022;" horiz-adv-x="571" d="M51 780q0 23 17 43l174 174q20 16 43 17q25 0 41 -17l168 -166q18 -23 18 -45q0 -25 -18 -43l-172 -172q-18 -18 -43 -18t-43 18l-168 168q-16 16 -17 41z" />
<glyph unicode="&#x202f;" horiz-adv-x="320" />
<glyph unicode="&#x205f;" horiz-adv-x="401" />
<glyph unicode="&#x25fc;" horiz-adv-x="1187" d="M0 0v1188h1188v-1188h-1188z" />
</font>
</defs>
</svg>
