<?xml version="1.0" standalone="no"?>
<!DOCTYPE svg PUBLIC "-//W3C//DTD SVG 1.1//EN" "http://www.w3.org/Graphics/SVG/1.1/DTD/svg11.dtd" >
<svg xmlns="http://www.w3.org/2000/svg">
<metadata></metadata>
<defs>
<font id="space_comicsregular" horiz-adv-x="2724" >
<font-face units-per-em="2048" ascent="1638" descent="-410" />
<missing-glyph horiz-adv-x="976" />
<glyph horiz-adv-x="0" />
<glyph unicode="&#xd;" horiz-adv-x="550" />
<glyph unicode=" "  horiz-adv-x="976" />
<glyph unicode="&#x09;" horiz-adv-x="976" />
<glyph unicode="&#xa0;" horiz-adv-x="976" />
<glyph unicode="!" horiz-adv-x="1166" d="M87 119q65 144 234 202t365 49q119 -21 173 -42q222 -90 183 -279q-26 -106 -164 -203q-130 -71 -229 -84q-147 -31 -340 29q-287 114 -222 328zM90 2453q517 35 951 9q-58 -1349 -99 -1914q-366 -14 -780 -4q0 6 -7 8q-43 613 -65 1901z" />
<glyph unicode="&#x22;" horiz-adv-x="2349" d="M139 2391q-32 172 70 335q155 224 444 190q394 -36 433 -438q88 -482 -646 -772q-167 -45 -82 66q256 121 275 407q-462 -23 -494 212zM1243 2391q-32 172 70 335q155 224 444 190q394 -36 433 -438q88 -482 -646 -772q-167 -45 -82 66q256 121 275 407 q-462 -23 -494 212z" />
<glyph unicode="#" horiz-adv-x="2637" d="M68 464q3 270 55 575q241 3 464 5q10 109 18 211q-298 3 -508 6q3 270 55 575q262 3 503 5q25 284 44 487q272 30 576 16q-17 -259 -34 -499q109 2 212 2q24 280 43 481q272 30 576 16q-17 -257 -34 -494q277 0 501 -1q-12 -321 -66 -603q-249 1 -477 2q-7 -100 -14 -195 q293 0 529 -1q-13 -321 -67 -603q-266 1 -507 2q-21 -271 -40 -493q-323 -27 -603 -8q22 265 42 505q-101 1 -196 1q-21 -275 -40 -498q-323 -27 -603 -8q22 267 42 510q-274 1 -471 4zM1185 1049q102 1 200 2q9 103 17 199q-104 1 -203 1q-7 -103 -14 -202z" />
<glyph unicode="$" horiz-adv-x="2276" d="M53 1362q-38 519 280 863q199 195 485 263l-5 346q319 14 636 11q-2 -169 -2 -343q276 -40 599 -151l-16 -795q-255 135 -507 189q-578 122 -602 -166q-3 -203 377 -148q331 39 558 -46t314 -278q106 -346 22 -607q-182 -519 -683 -680q0 -189 5 -369q-306 -15 -634 5 l-4 312q-354 37 -718 193q11 394 28 788q535 -305 976 -264q224 42 221 195q2 119 -226 98q-239 -6 -329 9q-76 -3 -203 26q-179 34 -305 108q-120 65 -192 197q-59 95 -75 244z" />
<glyph unicode="%" horiz-adv-x="2402" d="M55 1791q-11 117 28 241q49 133 133 207q264 235 560 34q99 -78 141 -213q22 -82 20 -164q-45 -478 -502 -466q-189 1 -311 158q-59 94 -69 203zM337 -116q295 891 975 2749q472 -92 830 -218q-556 -1339 -1075 -2750q-359 77 -728 205q3 9 -2 14zM399 1844 q20 -59 87 -60q59 -4 95 36q40 50 18 101q-29 65 -87 63q-72 -5 -105 -74q-16 -35 -8 -66zM1450 288q-11 117 28 241q49 133 133 207q264 235 560 34q99 -78 141 -213q22 -82 20 -164q-45 -478 -502 -466q-189 1 -311 158q-59 94 -69 203zM1794 341q20 -59 87 -60 q59 -4 95 36q40 50 18 101q-29 65 -87 63q-72 -5 -105 -74q-16 -35 -8 -66z" />
<glyph unicode="&#x26;" horiz-adv-x="2581" d="M133 419q-48 420 181 677q130 157 231 237q-227 244 -156 601q59 293 431 503q302 127 523 75q257 -32 434 -249q149 -209 157 -377q34 -465 -378 -654q76 -81 165 -135q33 63 113 178q212 -75 495 -273l-131 -258q118 -84 327 -276q-179 -236 -418 -435q-94 95 -257 218 q-104 -89 -320 -252q-369 -256 -722 -213q-544 36 -675 633zM795 606q4 -139 146 -145q175 -18 359 177q-168 110 -308 221q-234 -103 -197 -253zM1044 1730q4 -85 89 -125q224 117 64 229q-152 32 -153 -104z" />
<glyph unicode="'" horiz-adv-x="1238" d="M139 2391q-32 172 70 335q155 224 444 190q394 -36 433 -438q88 -482 -646 -772q-167 -45 -82 66q256 121 275 407q-462 -23 -494 212z" />
<glyph unicode="(" horiz-adv-x="1991" d="M105 1102q20 199 106 461q60 161 144 303q267 425 615 645q433 258 935 297l-22 -600q-966 -202 -1030 -1103q-22 -1356 1035 -1513l35 -559q-473 1 -755 105q-339 138 -599 409q-200 214 -302 452q-217 520 -162 1103z" />
<glyph unicode=")" horiz-adv-x="1991" d="M94 -967l35 559q1057 157 1035 1513q-64 901 -1030 1103l-22 600q502 -39 935 -297q348 -220 615 -645q84 -142 144 -303q86 -262 106 -461q55 -583 -162 -1103q-102 -238 -302 -452q-260 -271 -599 -409q-282 -104 -755 -105z" />
<glyph unicode="*" horiz-adv-x="1636" d="M77 1719q176 127 354 253q-178 126 -354 253q121 206 245 355q136 -95 274 -193q0 167 2 334l421 14q3 -174 5 -345l274 190l254 -336q-189 -138 -375 -272q186 -134 375 -272l-254 -336q-135 93 -268 186q0 -165 -1 -328q-192 -15 -431 5q-2 165 -2 330 q-138 -98 -274 -193q-124 148 -245 355z" />
<glyph unicode="+" horiz-adv-x="1661" d="M50 1453q210 5 416 9q1 204 4 408l669 14q5 -209 9 -415q210 1 415 0q15 -306 -5 -685q-201 -3 -403 -4q1 -207 0 -409q-306 -15 -685 5q-3 202 -4 404q-201 1 -402 4z" />
<glyph unicode="," horiz-adv-x="1238" d="M123 -16q-32 172 70 335q155 224 444 190q394 -36 433 -438q88 -482 -646 -772q-167 -45 -82 66q256 121 275 407q-462 -23 -494 212z" />
<glyph unicode="-" horiz-adv-x="1640" d="M50 1453q786 20 1513 16q15 -306 -5 -685q-748 -11 -1494 0z" />
<glyph unicode="." horiz-adv-x="1220" d="M147 224q65 144 234 202t365 49q119 -21 173 -42q222 -90 183 -279q-26 -106 -164 -203q-130 -71 -229 -84q-147 -31 -340 29q-287 114 -222 328z" />
<glyph unicode="/" horiz-adv-x="1905" d="M50 -116q295 891 975 2749q472 -92 830 -218q-556 -1339 -1075 -2750q-359 77 -728 205q3 9 -2 14z" />
<glyph unicode="0" horiz-adv-x="2698" d="M72 1154q129 1383 1451 1348q547 -2 901 -457q168 -270 199 -586q31 -340 -81 -696q-143 -387 -386 -599q-762 -679 -1619 -100q-287 227 -408 618q-63 237 -57 472zM980 1033q109 -242 325 -237q272 22 396 279q57 132 28 247q-73 220 -325 225q-222 13 -356 -135 q-147 -189 -68 -379z" />
<glyph unicode="1" horiz-adv-x="1976" d="M50 1522l866 971q423 12 926 -5q-2 -1425 -17 -2701q-517 -53 -982 4q-2 827 39 1606l-284 -311q-276 194 -548 436z" />
<glyph unicode="2" horiz-adv-x="2527" d="M93 1427q-33 217 97 502q314 539 1134 565q258 22 574 -105q462 -291 461 -766q8 -536 -671 -1036q327 4 715 -4q11 -503 -17 -820q-1074 25 -2187 -3q-36 327 -7 744q1000 432 1141 787q50 96 49 172l-1 13q-5 238 -264 206q-260 -81 -287 -542q-258 102 -737 287z" />
<glyph unicode="3" horiz-adv-x="2237" d="M62 49q131 293 327 622q850 -421 862 -54q-65 279 -652 282q-7 153 -12 396l405 375q74 101 -156 102q-265 -11 -456 -164q-177 245 -305 595q759 489 1488 237q779 -372 393 -833l-303 -295q355 -232 461 -461q181 -613 -272 -942q-386 -235 -1025 -178 q-502 51 -755 318z" />
<glyph unicode="4" horiz-adv-x="2153" d="M97 452q-16 364 1 756q566 658 1075 1355q361 -201 706 -506q-350 -451 -691 -805q299 -31 874 12q22 -410 6 -802l-448 -3q-15 -356 1 -652q-466 -37 -839 -16q-8 499 20 653q-441 1 -705 8z" />
<glyph unicode="5" horiz-adv-x="2237" d="M30 127q50 291 258 648q921 -313 955 -34q-6 180 -191 240q-250 45 -281 -101l-639 1q-15 870 8 1639q898 -25 1827 -10q15 -307 -7 -679q-728 7 -1125 0l1 -224q84 107 365 96q678 -104 898 -593q265 -750 -474 -1208q-373 -186 -836 -105q-487 80 -759 330z" />
<glyph unicode="6" horiz-adv-x="2342" d="M297 1896q214 395 452 538q623 337 1451 -86q-8 -486 -41 -808q-632 246 -926 152q-198 -98 -184 -312q167 192 602 111q491 -114 593 -642q85 -613 -342 -912q-641 -384 -1348 72q-741 646 -257 1887zM1167 675q-11 -124 91 -176q167 -37 262 87q91 186 -92 273 q-253 25 -261 -184z" />
<glyph unicode="7" horiz-adv-x="2401" d="M68 1703q-17 384 8 809q1084 -8 2247 15q23 -309 -10 -712q-789 -1236 -1172 -2038q-486 -19 -966 18q512 1080 1004 1920z" />
<glyph unicode="8" horiz-adv-x="2482" d="M150 1747q-5 300 366 579q446 277 1005 207q694 -153 748 -729q26 -386 -382 -596q389 -99 491 -574q38 -394 -420 -695q-551 -274 -1117 -137q-378 75 -578 322q-434 561 166 1037q-274 201 -279 586zM1005 687q-44 -189 53 -241q264 -111 442 64q109 217 -102 302 q-246 67 -393 -125zM1037 1690q-16 -148 62 -185q210 -77 330 65q64 172 -104 231q-193 43 -288 -111z" />
<glyph unicode="9" horiz-adv-x="2671" d="M178 1556q-50 617 394 891q661 346 1341 -149q703 -687 213 -1925q-181 -324 -546 -485q-603 -273 -1385 169q-23 485 29 805q616 -282 915 -205q204 86 201 301q-177 -183 -606 -77q-484 142 -556 675zM916 1777q-102 -180 76 -277q252 -40 271 169q19 122 -80 180 q-165 46 -267 -72z" />
<glyph unicode=":" horiz-adv-x="1242" d="M117 878q-5 97 42 155q69 88 240 162q285 98 459 41q195 -79 248 -272q27 -225 -234 -311q-225 -67 -416 -34q-123 23 -208 69q-126 90 -131 190zM147 224q65 144 234 202t365 49q119 -21 173 -42q222 -90 183 -279q-26 -106 -164 -203q-130 -71 -229 -84 q-147 -31 -340 29q-287 114 -222 328z" />
<glyph unicode=";" horiz-adv-x="1258" d="M117 878q-5 97 41 155q70 88 241 162q284 98 458 41q196 -79 249 -272q26 -225 -234 -311q-225 -67 -417 -34q-123 23 -207 69q-126 90 -131 190zM153 -16q-32 172 70 335q155 224 444 190q394 -36 433 -438q88 -482 -646 -772q-167 -45 -82 66q256 121 275 407 q-462 -23 -494 212z" />
<glyph unicode="&#x3c;" horiz-adv-x="2300" d="M51 1207q1328 577 2064 760q74 -464 107 -786q-599 -71 -1101 -239q625 -219 1112 -321l-271 -733q-875 298 -1906 662q15 389 -5 657z" />
<glyph unicode="=" horiz-adv-x="1707" d="M80 1107q786 20 1513 16q15 -306 -5 -685q-748 -11 -1494 0zM86 1992q786 20 1513 16q15 -306 -5 -685q-748 -11 -1494 0z" />
<glyph unicode="&#x3e;" horiz-adv-x="2387" d="M97 1234l270 733q876 -298 1907 -662q-15 -389 5 -657q-1328 -577 -2064 -760q-74 464 -107 786q599 71 1101 239q-625 219 -1112 321z" />
<glyph unicode="?" horiz-adv-x="2142" d="M206 1849q448 868 1285 606q596 -266 567 -808q-48 -456 -777 -646q-10 -316 3 -495q-339 -4 -616 7q-12 392 2 901q278 3 471 79q331 137 160 341q-313 288 -645 -271q-354 214 -450 286zM491 139q65 144 234 202t365 49q119 -21 173 -42q222 -90 183 -279 q-26 -106 -164 -203q-130 -71 -229 -84q-147 -31 -340 29q-287 114 -222 328z" />
<glyph unicode="@" horiz-adv-x="2729" d="M636 1168q35 265 220 436q299 269 660 115q9 35 21 130q436 27 601 -154q-69 -437 -97 -657q0 -35 104 -111q42 83 79 178q77 171 27 441q-383 800 -1308 327q-958 -776 167 -1669q-25 -168 -197 -292q-1541 1355 -220 2399q1068 640 1780 -351q207 -271 147 -681 q-48 -581 -482 -819q-542 -161 -615 224q-180 -240 -430 -243q-178 0 -330 203q-158 282 -127 524zM1120 1099q0 -155 117 -202q159 -30 224 141q69 307 -118 315q-198 -28 -223 -254z" />
<glyph unicode="A" horiz-adv-x="2469" d="M28 -140l599 1904l-272 19l181 700q330 -16 629 -16t566 16l692 -2661h-25q-328 0 -808 -74l-123 560q-132 11 -249 11q-106 0 -201 -9q-117 -356 -164 -550q-386 63 -825 100zM1138 977q88 3 171 10q-20 201 -74 376q-52 -149 -97 -386z" />
<glyph unicode="B" horiz-adv-x="2530" d="M45 2257q327 128 1064 163h41q845 0 1118 -524q58 -140 57 -266q0 -264 -252 -465q374 -200 374 -526q-1 -328 -192 -481q-94 -89 -209 -140q-455 -215 -984 -215h-43h-12q-183 0 -664 28q-8 1234 -10 1760l-257 -59q-12 432 -31 725zM1034 1722v-38q0 -124 11 -239 q49 -3 93 -3q314 0 313 168q0 11 -1 23q-10 85 -99 112q-62 13 -122 13q-100 0 -195 -36zM1069 782q-1 -36 -1 -70q0 -125 9 -225q89 -9 162 -9q345 0 345 202v10q-22 96 -145 122q-61 13 -126 13q-116 0 -244 -43z" />
<glyph unicode="C" horiz-adv-x="2006" d="M108 1526q346 924 1450 924q165 0 347 -21l6 -1064q-210 58 -375 58q-222 -1 -363 -105q-146 -108 -146 -246q0 -94 68 -203q129 -146 414 -146q176 0 411 56l-13 -966q-208 -26 -394 -26q-943 0 -1328 657q-141 292 -141 622q0 222 64 460z" />
<glyph unicode="D" horiz-adv-x="2609" d="M94 2346q439 132 1086 132h66q619 -21 972.5 -338t370.5 -1052q-18 -484 -213 -725q-421 -518 -1046 -540q-229 -15 -408 -15q-300 0 -460 42q1 79 1 170q0 566 -38 1550l-280 -27q-43 516 -51 803zM1183 1642q32 -405 56 -902h4q244 0 412 123q125 96 125 279 q0 42 -6 88q-50 420 -468 420q-58 0 -123 -8z" />
<glyph unicode="E" horiz-adv-x="2306" d="M70 2450q596 0 2114 30q-40 -464 -40 -795v-31l-988 -7l8 -222l689 21l19 -637q-264 -23 -685 -36l4 -196h51q420 0 927 31q13 -504 40 -791q-523 -13 -1894 -45q9 544 9 1011.5t-9 857.5l-224 -5z" />
<glyph unicode="F" horiz-adv-x="2321" d="M89 2411q819 102 2074 102h72q12 -253 12 -457q0 -331 -32 -529q-254 10 -503 10q-236 0 -468 -9l11 -226q316 14 510 14h47q2 -45 2 -104q0 -225 -33 -644q-258 -6 -509 -17q-3 -158 -3 -332q0 -200 4 -422q-290 -32 -561 -32q-141 0 -278 9q-14 81 -14 1736l-317 -21 q-15 353 -15 746q0 87 1 176z" />
<glyph unicode="G" horiz-adv-x="2509" d="M198 492q-114 287 -114 566q0 506 376 986q463 461 1253 461q261 0 558 -50q16 -215 16 -416q0 -262 -27 -500q-209 67 -493 67q-113 0 -238 -11q-413 -87 -513 -366q-20 -104 -20 -193q0 -303 239 -418q85 -15 157 -15q177 0 280 92q-32 6 -79 6q-68 0 -169 -12l-5 508 q714 4 947 21q1 -138 1 -272q0 -639 -20 -1157q-178 -25 -480 -25q-126 0 -273 4l12 118q-217 -48 -405 -48q-697 0 -1003 654z" />
<glyph unicode="H" horiz-adv-x="2255" d="M116 -182q86 1615 86 2397q0 132 -2 240q380 23 704 23q70 0 137 -1q1 -71 1 -164q0 -326 -16 -927l253 28q2 116 40 1017q411 28 848 48q-36 -1266 -37 -2213q0 -247 3 -472q-152 -6 -331 -6q-269 0 -600 14q58 451 58 709q0 49 -2 90l-248 -11q-23 -243 -23 -652v-97 q-292 -26 -632 -26q-117 0 -239 3z" />
<glyph unicode="I" horiz-adv-x="1303" d="M127 2386q207 57 545 57q219 0 493 -24q-44 -1375 -50 -2601q-377 -18 -834 -18h-132q-40 575 -40 1388q0 546 18 1198z" />
<glyph unicode="J" horiz-adv-x="2464" d="M15 1068q68 439 289 622l7 -1q316 -163 608 -367q-113 -156 -127 -341q-3 -33 -3 -63q0 -252 218 -268q184 8 294 131q86 51 86 331q0 219 -53 579l-295 -49q-22 362 -38 760q704 85 1135 94q90 -470 156 -1092q9 -114 9 -220q0 -798 -512 -1168q-290 -209 -666 -229 q-37 -1 -73 -1q-262 0 -466 70q-225 96 -329 229q-141 172 -212 411q-38 166 -38 363q0 100 10 209z" />
<glyph unicode="K" horiz-adv-x="2320" d="M52 -202v73q0 983 51 2568q378 64 687 64q99 0 192 -7q17 -121 17 -375q0 -127 -4 -287q319 215 661 530l603 -528q-532 -429 -864 -686q383 -443 847 -827q-364 -374 -683 -566q-270 303 -556 656q-16 -286 -16 -488q0 -68 2 -126q-250 -40 -486 -40q-232 0 -451 39z " />
<glyph unicode="L" horiz-adv-x="1818" d="M81 -234q30 1517 30 2244q0 266 -4 426q377 29 691 29q91 0 176 -2l-2 -1878q384 9 811 20q3 -91 3 -177q0 -356 -53 -634q-408 -40 -982 -40q-311 0 -670 12z" />
<glyph unicode="M" horiz-adv-x="3162" d="M34 1519l70 913q785 38 1173 64q187 -278 376 -512q189 221 361 503q379 -24 863 -36q210 -2070 247 -2597q-376 -75 -883 -101q-48 534 -96 1202l-538 -502q-279 281 -459 490q-49 -690 -72 -1183l-926 37l135 1701z" />
<glyph unicode="N" horiz-adv-x="2760" d="M85 1559l21 859l974 101q239 -442 719 -954q-14 251 -33 876q485 17 905 64q-1 -1537 -25 -2725q-241 0 -607 -16q-353 497 -863 1061l11 -1061q-163 7 -327 7q-251 0 -505 -16q14 478 14 1040q0 375 -6 787z" />
<glyph unicode="O" d="M78 841q-7 74 -7 148q0 269 88 548q143 387 386 599q411 366 850 366q374 0 769 -266q287 -227 408 -618q58 -216 58 -431q0 -20 -1 -41q-126 -1349 -1386 -1349q-32 0 -65 1q-547 2 -901 457q-168 270 -199 586zM972 947q73 -220 325 -225q18 -1 35 -1q198 0 321 136 q96 123 96 246q0 66 -28 133q-107 237 -316 237h-9q-272 -22 -396 -279q-38 -87 -38 -168q0 -40 10 -79z" />
<glyph unicode="P" horiz-adv-x="2343" d="M54 2349q554 153 1034 153q278 0 531 -51q595 -177 670 -853v-9q0 -868 -798 -997q-191 -31 -312 -48q5 -428 38 -771q-470 -19 -883 -26q-9 581 -9 1055q0 446 8 798l-234 -28zM1135 1706q-13 -104 -13 -208q0 -129 20 -257q370 20 397 224v6q0 141 -90 206 q-99 58 -190 58q-64 0 -124 -29z" />
<glyph unicode="Q" d="M78 841q-7 74 -7 148q0 269 88 548q143 387 386 599q411 366 850 366q375 0 769 -266q287 -227 408 -618q58 -216 58 -431q0 -21 -1 -41q-41 -439 -202 -735l243 -246q-221 -289 -446 -469l-313 229q-282 -128 -670 -128q-31 0 -63 1q-547 2 -901 457q-168 270 -199 586z M972 947q73 -220 325 -225q18 -1 35 -1q198 0 321 136q96 123 96 246q0 67 -28 133q-107 237 -316 237h-9q-272 -22 -396 -279q-38 -87 -38 -168q0 -40 10 -79z" />
<glyph unicode="R" horiz-adv-x="2424" d="M44 1540q29 484 44 825q589 139 1082 139q138 0 269 -11q311 -41 568 -211q267 -178 346 -388q32 -123 32 -241q0 -484 -536 -880q277 -327 517 -519l-669 -614l-548 753q-3 -342 -3 -625q-218 -11 -394 -11q-279 0 -452 28q-1 71 -1 173q0 478 27 1624zM1151 1239 l143 42q246 118 245 267q-3 124 -125 141q-48 16 -113 16.5t-145 -16.5q-9 -125 -9 -260q0 -93 4 -190z" />
<glyph unicode="S" horiz-adv-x="2341" d="M54 1358q-4 57 -4 112q0 463 295 783q316 309 844 309q406 0 939 -183l-18 -889q-308 163 -554 216q-169 36 -287 36q-253 0 -267 -165q-2 -118 191 -118q61 0 141 12q105 12 201 12q213 1 379 -61q240 -90 335 -301q61 -200 61 -373q0 -139 -39 -261 q-237 -677 -996 -765q-69 -5 -139 -5q-471 0 -978 218q12 421 32 881q518 -295 914 -296q48 0 94 5q189 35 186 155q1 61 -121 61q-28 0 -62 -3q-70 -2 -127 -2q-143 0 -207 11h-15q-75 0 -194 27q-185 35 -316 112q-130 70 -207 212q-64 102 -81 260z" />
<glyph unicode="T" horiz-adv-x="2765" d="M196 1539q-16 233 -16 472t16 483q696 -14 1408 -14q496 0 1000 7q20 -213 21 -411q0 -272 -39 -515q-153 6 -302 6q-245 0 -476 -17l22 -1748q-353 -17 -682 -17q-129 0 -254 3l50 1768h-73q-346 0 -675 -17z" />
<glyph unicode="U" horiz-adv-x="2744" d="M76 1568v62q0 478 44 765q665 86 1081 86q51 0 99 -1q-35 -184 -65 -722q-8 -138 -8 -259q0 -347 65 -542q63 -147 182 -157q146 3 189 148q60 276 60 703q0 362 -43 832l875 -55q77 -525 78 -977q0 -202 -16 -390q-94 -990 -828 -1265q-190 -62 -389 -62q-153 0 -312 37 q-612 210 -751 1169q-23 238 -23 406q0 149 18 243z" />
<glyph unicode="V" horiz-adv-x="2841" d="M74 2395q537 105 1070 121q240 -1121 408 -1635q246 848 379 1616l869 -66q-578 -1988 -740 -2638q-287 -21 -520 -21q-238 0 -420 22q-443 1162 -645 1872l-287 -43q-93 486 -114 772z" />
<glyph unicode="W" horiz-adv-x="3144" d="M50 2406q227 75 892 96q81 -425 183 -1116l371 591q217 -333 402 -589l277 1110q491 -3 944 -56q-383 -1517 -634 -2651q-165 -9 -316 -9q-220 0 -410 19l-276 654l-244 -663q-209 -20 -464 -20q-148 0 -311 7q-190 1241 -414 2627z" />
<glyph unicode="X" horiz-adv-x="2673" d="M28 1930q312 333 743 637q423 -557 579 -740q339 440 611 707q442 -317 713 -608q-443 -484 -775 -789l681 -708q-347 -401 -735 -721q-276 366 -560 718l-536 -725q-328 229 -719 637q207 295 689 815q-337 438 -691 777z" />
<glyph unicode="Y" horiz-adv-x="2688" d="M61 1856l651 685q376 -414 673 -720q248 311 606 728q361 -315 648 -593q-357 -407 -824 -916q2 -406 2 -779q0 -279 -1 -539q-102 -1 -202 -1q-359 0 -686 14q-4 291 -4 600q0 347 5 717q-300 290 -868 804z" />
<glyph unicode="Z" horiz-adv-x="2656" d="M79 1566q-1 76 -1 148q0 444 47 771q377 -5 779 -5q777 0 1647 19q7 -175 7 -415q0 -223 -6 -501q-721 -532 -1125 -919q189 -1 393 -1q340 0 723 3q27 -271 27 -531q0 -167 -11 -330q-868 -21 -1780 -21q-326 0 -657 3q-1 134 -1 253q0 326 8 532q621 693 928 993 q-286 -6 -523 -6q-256 0 -455 7z" />
<glyph unicode="\" horiz-adv-x="1905" d="M50 2415q358 126 830 218q680 -1858 975 -2749q-5 -5 -2 -14q-369 -128 -728 -205q-519 1411 -1075 2750z" />
<glyph unicode="_" horiz-adv-x="2449" d="M70 57.5q5 151.5 7 156.5q712 30 2288 13q19 -331 2 -616q-1433 -2 -2284 5q-18 290 -13 441.5z" />
<glyph unicode="`" horiz-adv-x="1037" d="M34 405q96 189 189 333q259 -147 728 -429l-193 -321q-215 120 -724 417z" />
<glyph unicode="|" horiz-adv-x="1130" d="M82 -230q58 2205 32 3123q433 28 905 9q-8 -1012 14 -3117q-517 -57 -951 -15z" />
<glyph unicode="~" horiz-adv-x="1406" d="M101 457q100 164 322 169q245 -4 330 -166q89 -197 202 -184q54 8 73 82q7 123 -72 240q232 7 341 2q87 -412 -101 -562q-122 -88 -317 -76q-217 15 -332 189q-106 197 -205 96q-74 -114 66 -258q-139 -18 -298 -16q-143 236 -9 484z" />
<glyph unicode="&#xa1;" horiz-adv-x="1135" d="M81 2176q26 106 164 203q130 71 229 84q147 31 340 -29q287 -114 222 -328q-65 -144 -234 -202t-365 -49q-119 21 -173 42q-222 90 -183 279zM82 -237q58 1349 99 1914q366 14 780 4q0 -6 7 -8q43 -613 65 -1901q-517 -35 -951 -9z" />
<glyph unicode="&#xa8;" horiz-adv-x="1495" d="M76 236q-23 92 22 197q99 204 316 222q172 4 259 -189q63 -151 -54 -302q-107 -118 -284 -107q-201 4 -259 179zM787 236q-23 92 22 197q99 204 316 222q172 4 259 -189q63 -151 -54 -302q-107 -118 -284 -107q-201 4 -259 179z" />
<glyph unicode="&#xa9;" horiz-adv-x="2632" d="M72 1204q124 1331 1397 1298q527 -2 867 -440q162 -260 192 -565q30 -327 -78 -670q-138 -372 -372 -577q-733 -653 -1558 -96q-277 219 -393 595q-61 228 -55 455zM469 1298q-9 -522 382 -785q512 -327 886 -69q449 353 327 975q-74 312 -278 494q-420 326 -870 46 q-408 -231 -447 -661zM677 1438q202 540 913 459l3 -541q-250 68 -374.5 -24t-40.5 -229q107 -120 420 -45l-7 -492q-641 -78 -875 321q-120 249 -39 551z" />
<glyph unicode="&#xad;" horiz-adv-x="1640" d="M50 1453q786 20 1513 16q15 -306 -5 -685q-748 -11 -1494 0z" />
<glyph unicode="&#xae;" horiz-adv-x="2612" d="M72 1204q124 1331 1397 1298q527 -2 867 -440q162 -260 192 -565q30 -327 -78 -670q-138 -372 -372 -577q-733 -653 -1558 -96q-277 219 -393 595q-61 228 -55 455zM542 1309q-31 -642 460 -938q402 -209 857 189q345 318 263 842q-100 427 -533 605q-480 221 -845 -164 q-173 -210 -202 -534zM792 1424q13 220 20 375q343 81 613 58q142 -19 258 -96q122 -81 158 -176q73 -286 -246 -516q122 -174 261 -340l-322 -140l-240 314q-2 -155 -2 -284q-196 -1 -386 15q-1 178 14 809zM1295 1287l65 20q111 53 111 121q-2 56 -57 64q-44 15 -117 0 q-7 -96 -2 -205z" />
<glyph unicode="&#xb0;" horiz-adv-x="1053" d="M74 2035q-11 117 28 241q49 133 133 207q264 235 560 34q99 -78 141 -213q22 -82 20 -164q-45 -478 -502 -466q-189 1 -311 158q-59 94 -69 203zM418 2088q20 -59 87 -60q59 -4 95 36q40 50 18 101q-29 65 -87 63q-72 -5 -105 -74q-16 -35 -8 -66z" />
<glyph unicode="&#xb4;" horiz-adv-x="1001" d="M34 299q469 282 728 429q93 -144 189 -333q-509 -297 -724 -417z" />
<glyph unicode="&#xb8;" horiz-adv-x="1302" d="M47 -738q61 43 288 169q212 -330 412 -160q110 120 -102 201q-123 45 -301 47q-7 217 -2 480q178 7 394 4q-8 -105 -2 -241q55 -13 189 -59q285 -114 308 -322q19 -319 -362 -476q-154 -45 -328 -29q-303 44 -494 386z" />
<glyph unicode="&#xbf;" horiz-adv-x="2050" d="M105 640q48 456 777 646q10 316 -3 495q339 4 616 -7q12 -392 -2 -901q-278 -3 -471 -79q-331 -137 -160 -341q313 -288 645 271q354 -214 450 -286q-448 -868 -1285 -606q-596 266 -567 808zM717 2218q26 106 164 203q130 71 229 84q147 31 340 -29q287 -114 222 -328 q-65 -144 -234 -202t-365 -49q-119 21 -173 42q-222 90 -183 279z" />
<glyph unicode="&#xc0;" horiz-adv-x="2469" d="M28 -140l599 1904l-272 19l181 700q660 -32 1195 0l692 -2661q-335 3 -833 -74l-123 560q-251 21 -450 2q-117 -356 -164 -550q-386 63 -825 100zM776 2906q96 189 189 333q259 -147 728 -429l-193 -321q-215 120 -724 417zM1138 977q88 3 171 10q-20 201 -74 376 q-52 -149 -97 -386z" />
<glyph unicode="&#xc1;" horiz-adv-x="2469" d="M28 -140l599 1904l-272 19l181 700q660 -32 1195 0l692 -2661q-335 3 -833 -74l-123 560q-251 21 -450 2q-117 -356 -164 -550q-386 63 -825 100zM776 2800q469 282 728 429q93 -144 189 -333q-509 -297 -724 -417zM1138 977q88 3 171 10q-20 201 -74 376 q-52 -149 -97 -386z" />
<glyph unicode="&#xc2;" horiz-adv-x="2469" d="M28 -140l599 1904l-272 19l181 700q660 -32 1195 0l692 -2661q-335 3 -833 -74l-123 560q-251 21 -450 2q-117 -356 -164 -550q-386 63 -825 100zM613 2793q396 276 621 422q225 -147 621 -422l-165 -317q-147 96 -456 303q-309 -207 -456 -303zM1138 977q88 3 171 10 q-20 201 -74 376q-52 -149 -97 -386z" />
<glyph unicode="&#xc3;" horiz-adv-x="2469" d="M28 -140l599 1904l-272 19l181 700q660 -32 1195 0l692 -2661q-335 3 -833 -74l-123 560q-251 21 -450 2q-117 -356 -164 -550q-386 63 -825 100zM648 3069q100 164 322 169q245 -4 330 -166q89 -197 202 -184q54 8 73 82q7 123 -72 240q232 7 341 2q87 -412 -101 -562 q-122 -88 -317 -76q-217 15 -332 189q-106 197 -205 96q-74 -114 66 -258q-139 -18 -298 -16q-143 236 -9 484zM1138 977q88 3 171 10q-20 201 -74 376q-52 -149 -97 -386z" />
<glyph unicode="&#xc4;" horiz-adv-x="2469" d="M28 -140l599 1904l-272 19l181 700q660 -32 1195 0l692 -2661q-335 3 -833 -74l-123 560q-251 21 -450 2q-117 -356 -164 -550q-386 63 -825 100zM560 2737q-23 92 22 197q99 204 316 222q172 4 259 -189q63 -151 -54 -302q-107 -118 -284 -107q-201 4 -259 179z M1138 977q88 3 171 10q-20 201 -74 376q-52 -149 -97 -386zM1271 2737q-23 92 22 197q99 204 316 222q172 4 259 -189q63 -151 -54 -302q-107 -118 -284 -107q-201 4 -259 179z" />
<glyph unicode="&#xc5;" horiz-adv-x="2469" d="M28 -140l599 1904l-272 19l181 700q660 -32 1195 0l692 -2661q-335 3 -833 -74l-123 560q-251 21 -450 2q-117 -356 -164 -550q-386 63 -825 100zM957 2591q-170 250 29 474q62 71 175 112q105 33 204 24q92 -9 172 -58q133 -104 133 -264q11 -386 -394 -424 q-69 -2 -139 17q-114 35 -180 119zM1138 977q88 3 171 10q-20 201 -74 376q-52 -149 -97 -386zM1202 2814q-2 -49 53 -73q43 -19 85 15q34 30 31 80q-1 57 -51 74q-26 7 -56 -7q-58 -28 -62 -89z" />
<glyph unicode="&#xc6;" horiz-adv-x="3649" d="M28 -140l599 1904l-272 19l181 700q660 -32 1195 0l692 -2661q-335 3 -833 -74l-123 560q-251 21 -450 2q-117 -356 -164 -550q-386 63 -825 100zM1138 977q88 3 171 10q-20 201 -74 376q-52 -149 -97 -386zM1396 2460q596 0 2114 30q-42 -486 -40 -826l-988 -7l8 -222 l689 21l19 -637q-264 -23 -685 -36l4 -196q440 -2 978 31q13 -504 40 -791q-523 -13 -1894 -45q18 1089 0 1869l-224 -5z" />
<glyph unicode="&#xc7;" horiz-adv-x="2006" d="M108 1526q398 1062 1797 903l6 -1064q-493 135 -738 -46.5t-78 -449.5q209 -236 825 -90l-13 -966q-1261 -155 -1722 631q-235 489 -77 1082zM713 -795q61 43 288 169q212 -330 412 -160q110 120 -102 201q-123 45 -301 47q-7 217 -2 480q178 7 394 4q-8 -105 -2 -241 q55 -13 189 -59q285 -114 308 -322q19 -319 -362 -476q-154 -45 -328 -29q-303 44 -494 386z" />
<glyph unicode="&#xc8;" horiz-adv-x="2306" d="M70 2450q596 0 2114 30q-42 -486 -40 -826l-988 -7l8 -222l689 21l19 -637q-264 -23 -685 -36l4 -196q440 -2 978 31q13 -504 40 -791q-523 -13 -1894 -45q18 1089 0 1869l-224 -5zM694 2906q96 189 189 333q259 -147 728 -429l-193 -321q-215 120 -724 417z" />
<glyph unicode="&#xc9;" horiz-adv-x="2306" d="M70 2450q596 0 2114 30q-42 -486 -40 -826l-988 -7l8 -222l689 21l19 -637q-264 -23 -685 -36l4 -196q440 -2 978 31q13 -504 40 -791q-523 -13 -1894 -45q18 1089 0 1869l-224 -5zM694 2800q469 282 728 429q93 -144 189 -333q-509 -297 -724 -417z" />
<glyph unicode="&#xca;" horiz-adv-x="2306" d="M70 2450q596 0 2114 30q-42 -486 -40 -826l-988 -7l8 -222l689 21l19 -637q-264 -23 -685 -36l4 -196q440 -2 978 31q13 -504 40 -791q-523 -13 -1894 -45q18 1089 0 1869l-224 -5zM532 2793q396 276 621 422q225 -147 621 -422l-165 -317q-147 96 -456 303 q-309 -207 -456 -303z" />
<glyph unicode="&#xcb;" horiz-adv-x="2306" d="M70 2450q596 0 2114 30q-42 -486 -40 -826l-988 -7l8 -222l689 21l19 -637q-264 -23 -685 -36l4 -196q440 -2 978 31q13 -504 40 -791q-523 -13 -1894 -45q18 1089 0 1869l-224 -5zM479 2737q-23 92 22 197q99 204 316 222q172 4 259 -189q63 -151 -54 -302 q-107 -118 -284 -107q-201 4 -259 179zM1190 2737q-23 92 22 197q99 204 316 222q172 4 259 -189q63 -151 -54 -302q-107 -118 -284 -107q-201 4 -259 179z" />
<glyph unicode="&#xcc;" horiz-adv-x="1303" d="M142 2386q342 94 1038 33q-44 -1375 -50 -2601q-431 -21 -966 -18q-67 962 -22 2586zM208 2906q96 189 189 333q259 -147 728 -429l-193 -321q-215 120 -724 417z" />
<glyph unicode="&#xcd;" horiz-adv-x="1303" d="M142 2386q342 94 1038 33q-44 -1375 -50 -2601q-431 -21 -966 -18q-67 962 -22 2586zM208 2800q469 282 728 429q93 -144 189 -333q-509 -297 -724 -417z" />
<glyph unicode="&#xce;" horiz-adv-x="1303" d="M32 2793q396 276 621 422q225 -147 621 -422l-165 -317q-147 96 -456 303q-309 -207 -456 -303zM127 2386q342 94 1038 33q-44 -1375 -50 -2601q-431 -21 -966 -18q-67 962 -22 2586z" />
<glyph unicode="&#xcf;" horiz-adv-x="1303" d="M-21 2737q-23 92 22 197q99 204 316 222q172 4 259 -189q63 -151 -54 -302q-107 -118 -284 -107q-201 4 -259 179zM127 2386q342 94 1038 33q-44 -1375 -50 -2601q-431 -21 -966 -18q-67 962 -22 2586zM690 2737q-23 92 22 197q99 204 316 222q172 4 259 -189 q63 -151 -54 -302q-107 -118 -284 -107q-201 4 -259 179z" />
<glyph unicode="&#xd0;" horiz-adv-x="2609" d="M71 1490q786 20 1513 16q15 -306 -5 -685q-748 -11 -1494 0zM94 2346q461 139 1152 132q619 -21 972.5 -338t370.5 -1052q-18 -484 -213 -725q-421 -518 -1046 -540q-612 -40 -868 27q7 579 -37 1720l-280 -27q-43 516 -51 803zM1183 1642q32 -405 56 -902 q247 -1 416 123q154 118 119 367q-57 478 -591 412z" />
<glyph unicode="&#xd1;" horiz-adv-x="2760" d="M85 1559l21 859l974 101q239 -442 719 -954q-14 251 -33 876q485 17 905 64q-1 -1537 -25 -2725q-241 0 -607 -16q-353 497 -863 1061l11 -1061q-412 17 -832 -9q24 796 8 1827zM648 3069q100 164 322 169q245 -4 330 -166q89 -197 202 -184q54 8 73 82q7 123 -72 240 q232 7 341 2q87 -412 -101 -562q-122 -88 -317 -76q-217 15 -332 189q-106 197 -205 96q-74 -114 66 -258q-139 -18 -298 -16q-143 236 -9 484z" />
<glyph unicode="&#xd2;" d="M78 841q-31 340 81 696q143 387 386 599q762 679 1619 100q287 -227 408 -618q63 -237 57 -472q-129 -1383 -1451 -1348q-547 2 -901 457q-168 270 -199 586zM903 2906q96 189 189 333q259 -147 728 -429l-193 -321q-215 120 -724 417zM972 947q73 -220 325 -225 q222 -13 356 135q147 189 68 379q-109 242 -325 237q-272 -22 -396 -279q-57 -132 -28 -247z" />
<glyph unicode="&#xd3;" d="M78 841q-31 340 81 696q143 387 386 599q762 679 1619 100q287 -227 408 -618q63 -237 57 -472q-129 -1383 -1451 -1348q-547 2 -901 457q-168 270 -199 586zM903 2800q469 282 728 429q93 -144 189 -333q-509 -297 -724 -417zM972 947q73 -220 325 -225q222 -13 356 135 q147 189 68 379q-109 242 -325 237q-272 -22 -396 -279q-57 -132 -28 -247z" />
<glyph unicode="&#xd4;" d="M78 841q-31 340 81 696q143 387 386 599q762 679 1619 100q287 -227 408 -618q63 -237 57 -472q-129 -1383 -1451 -1348q-547 2 -901 457q-168 270 -199 586zM741 2793q396 276 621 422q225 -147 621 -422l-165 -317q-147 96 -456 303q-309 -207 -456 -303zM972 947 q73 -220 325 -225q222 -13 356 135q147 189 68 379q-109 242 -325 237q-272 -22 -396 -279q-57 -132 -28 -247z" />
<glyph unicode="&#xd5;" d="M78 841q-31 340 81 696q143 387 386 599q762 679 1619 100q287 -227 408 -618q63 -237 57 -472q-129 -1383 -1451 -1348q-547 2 -901 457q-168 270 -199 586zM648 3069q100 164 322 169q245 -4 330 -166q89 -197 202 -184q54 8 73 82q7 123 -72 240q232 7 341 2 q87 -412 -101 -562q-122 -88 -317 -76q-217 15 -332 189q-106 197 -205 96q-74 -114 66 -258q-139 -18 -298 -16q-143 236 -9 484zM972 947q73 -220 325 -225q222 -13 356 135q147 189 68 379q-109 242 -325 237q-272 -22 -396 -279q-57 -132 -28 -247z" />
<glyph unicode="&#xd6;" d="M78 841q-31 340 81 696q143 387 386 599q762 679 1619 100q287 -227 408 -618q63 -237 57 -472q-129 -1383 -1451 -1348q-547 2 -901 457q-168 270 -199 586zM688 2737q-23 92 22 197q99 204 316 222q172 4 259 -189q63 -151 -54 -302q-107 -118 -284 -107 q-201 4 -259 179zM972 947q73 -220 325 -225q222 -13 356 135q147 189 68 379q-109 242 -325 237q-272 -22 -396 -279q-57 -132 -28 -247zM1399 2737q-23 92 22 197q99 204 316 222q172 4 259 -189q63 -151 -54 -302q-107 -118 -284 -107q-201 4 -259 179z" />
<glyph unicode="&#xd7;" horiz-adv-x="2366" d="M110 1741q252 269 600 515q342 -450 468 -598q274 356 493 571q357 -256 576 -491q-358 -391 -626 -637l550 -572q-280 -324 -593 -582q-223 295 -453 580l-433 -586q-265 185 -580 515q167 238 556 658q-272 354 -558 627z" />
<glyph unicode="&#xd8;" d="M78 841q-31 340 81 696q143 387 386 599q762 679 1619 100q287 -227 408 -618q63 -237 57 -472q-129 -1383 -1451 -1348q-547 2 -901 457q-168 270 -199 586zM510 -162q295 891 975 2749q472 -92 830 -218q-556 -1339 -1075 -2750q-359 77 -728 205q3 9 -2 14zM972 947 q73 -220 325 -225q222 -13 356 135q147 189 68 379q-109 242 -325 237q-272 -22 -396 -279q-57 -132 -28 -247z" />
<glyph unicode="&#xd9;" horiz-adv-x="2744" d="M76 1568q-3 521 44 827q747 97 1180 85q-35 -185 -65.5 -722.5t57.5 -800.5q63 -147 182 -157q146 3 189 148q110 509 17 1535l875 -55q112 -759 62 -1367q-94 -990 -828 -1265q-336 -109 -701 -25q-612 210 -751 1169q-44 449 -5 649zM913 2906q96 189 189 333 q259 -147 728 -429l-193 -321q-215 120 -724 417z" />
<glyph unicode="&#xda;" horiz-adv-x="2744" d="M76 1568q-3 521 44 827q747 97 1180 85q-35 -185 -65.5 -722.5t57.5 -800.5q63 -147 182 -157q146 3 189 148q110 509 17 1535l875 -55q112 -759 62 -1367q-94 -990 -828 -1265q-336 -109 -701 -25q-612 210 -751 1169q-44 449 -5 649zM913 2800q469 282 728 429 q93 -144 189 -333q-509 -297 -724 -417z" />
<glyph unicode="&#xdb;" horiz-adv-x="2744" d="M76 1568q-3 521 44 827q747 97 1180 85q-35 -185 -65.5 -722.5t57.5 -800.5q63 -147 182 -157q146 3 189 148q110 509 17 1535l875 -55q112 -759 62 -1367q-94 -990 -828 -1265q-336 -109 -701 -25q-612 210 -751 1169q-44 449 -5 649zM751 2793q396 276 621 422 q225 -147 621 -422l-165 -317q-147 96 -456 303q-309 -207 -456 -303z" />
<glyph unicode="&#xdc;" horiz-adv-x="2744" d="M76 1568q-3 521 44 827q747 97 1180 85q-35 -185 -65.5 -722.5t57.5 -800.5q63 -147 182 -157q146 3 189 148q110 509 17 1535l875 -55q112 -759 62 -1367q-94 -990 -828 -1265q-336 -109 -701 -25q-612 210 -751 1169q-44 449 -5 649zM698 2737q-23 92 22 197 q99 204 316 222q172 4 259 -189q63 -151 -54 -302q-107 -118 -284 -107q-201 4 -259 179zM1409 2737q-23 92 22 197q99 204 316 222q172 4 259 -189q63 -151 -54 -302q-107 -118 -284 -107q-201 4 -259 179z" />
<glyph unicode="&#xdd;" horiz-adv-x="2688" d="M61 1856l651 685q376 -414 673 -720q248 311 606 728q361 -315 648 -593q-357 -407 -824 -916q4 -711 1 -1318q-470 -5 -888 13q-8 618 1 1317q-300 290 -868 804zM885 2800q469 282 728 429q93 -144 189 -333q-509 -297 -724 -417z" />
<glyph unicode="&#xf7;" horiz-adv-x="1196" d="M117 1493q-5 115 42 184q69 104 240 192q285 116 459 48q195 -93 248 -322q27 -266 -234 -368q-225 -79 -416 -40q-123 27 -208 82q-126 106 -131 224zM147 720q65 170 234 239q169 68 365 58q119 -25 173 -50q222 -107 183 -330q-26 -126 -164 -241q-130 -84 -229 -99 q-147 -37 -340 34q-287 135 -222 389z" />
<glyph unicode="&#x2c6;" horiz-adv-x="1391" d="M72 292q396 276 621 422q225 -147 621 -422l-165 -317q-147 96 -456 303q-309 -207 -456 -303z" />
<glyph unicode="&#x2000;" horiz-adv-x="1619" />
<glyph unicode="&#x2001;" horiz-adv-x="3239" />
<glyph unicode="&#x2002;" horiz-adv-x="1619" />
<glyph unicode="&#x2003;" horiz-adv-x="3239" />
<glyph unicode="&#x2004;" horiz-adv-x="1079" />
<glyph unicode="&#x2005;" horiz-adv-x="809" />
<glyph unicode="&#x2006;" horiz-adv-x="539" />
<glyph unicode="&#x2007;" horiz-adv-x="539" />
<glyph unicode="&#x2008;" horiz-adv-x="404" />
<glyph unicode="&#x2009;" horiz-adv-x="647" />
<glyph unicode="&#x200a;" horiz-adv-x="179" />
<glyph unicode="&#x2010;" horiz-adv-x="1640" d="M50 1453q786 20 1513 16q15 -306 -5 -685q-748 -11 -1494 0z" />
<glyph unicode="&#x2011;" horiz-adv-x="1640" d="M50 1453q786 20 1513 16q15 -306 -5 -685q-748 -11 -1494 0z" />
<glyph unicode="&#x2012;" horiz-adv-x="1640" d="M50 1453q786 20 1513 16q15 -306 -5 -685q-748 -11 -1494 0z" />
<glyph unicode="&#x2013;" horiz-adv-x="1144" d="M50 1453q530 20 1020 16q10 -306 -4 -685q-504 -11 -1007 0z" />
<glyph unicode="&#x2014;" horiz-adv-x="2168" d="M50 1453q1059 20 2039 16q21 -306 -6 -685q-1009 -11 -2014 0z" />
<glyph unicode="&#x202f;" horiz-adv-x="647" />
<glyph unicode="&#x205f;" horiz-adv-x="809" />
<glyph unicode="&#x20ac;" horiz-adv-x="2336" d="M30 1020q745 14 1981 7q14 -216 -5 -483q-1256 -4 -1838 0zM30 1650q745 14 1981 6q14 -216 -5 -483q-1256 -3 -1841 0zM348 1259q18 148 100 343q57 119 136 225q254 315 583 479q411 192 1071 225l-37 -673q-1084 73 -1144 -597q-21 -1007 1155 -948l43 -586 q-633 -4 -900 73q-321 103 -568 304q-189 159 -286 336q-206 386 -153 819z" />
<glyph unicode="&#x25fc;" horiz-adv-x="500" d="M0 0z" />
</font>
</defs>
</svg>
